Jump to content

hirsti

Members
  • Content Count

    28
  • Joined

  • Last visited

About hirsti

  • Rank
    Member

Recent Profile Visitors

The recent visitors block is disabled and is not being shown to other users.

  1. Just had a little play and you are better off using the following for the NX500 to save prefman changes, you still have the issue where some settings don't get saved but you don't need the sleep in between commands. This goes into playback and then back out as movie standby doesn't save the settings, in fact it resets a lot of the movie related ones. st app nx key single pb; st app nx key single pb
  2. Not sure what what the st cap live sd options do, to be honest when I have tried them they don't seem to do anything. Although otto has referenced them in his doc as st cap dp ?? Easiest way to get video standby is to do a st key click right. If you want to save the video preferences this way you will need to do a sleep 1 between the key presses, any quicker and it doesn't work all the time. Be careful though as some of the settings do not get saved this way. On the NX1 I use prefman save. This causes a reboot but saves all the settings. With going into preview and back out it doesn't save such settings as PAL or NTSC. Unfortunately the prefman save doesn't work on the NX500 (the save works but it doesn't do a reboot and update the menu)
  3. They are all in the st cap live commands tree which are changes to the live view screen (EVF or LCD) and don't effect capture to SD card.
  4. ok, If you go into movie preview or record a movie on the NX1 the video and osd are locked to the LCD or EVF that you were on when you entered the mode. With this you can turn on and off video, osd, all but if you try to turn on the other non used mode it will not work For example if I go into video standby on the LCD st app bb lcd video - gives only video on the LCD st app bb lcd osd - gives only osd on the LCD st app bb lcd all - gives both video and osd on the LCD If I now do a st app bb lcd off - this switches off the LCD but the EVF isn't enabled. If I now do a st app bb evf on - this switches the LCD back on not the EVF in fact it will not change anything on the EVF unless I take it out of standby and manually switch to the EVF by pressing the EVF button (which is diabled in standby and recording) once it is pointing to the EVF then all the commands you send it be they EVF or LCD then take effect on the EVF. I have tried switching the evf internally using the st key and sys_param but they don't change whilst in standby or recording.
  5. I have run for 30 mins @ 160 mbit with no problems
  6. yes for 1080 @ 120fps but no for 1080 @ 30fps @ 0.25x (or any other speed modified)
  7. Hi. If I format the card as ext4 the camera reports it cannot read the card format. I have formatted back to exFat with an allocation unit size of 4096 which seems to be more stable for 200Mbits/sec, I haven't had any failures for clips less than 1 min but occasionally it will fail over 1 min.
  8. I am a little confused, I did a recording at 160Mbits/sec, it shows in the info from Medianfo as being 160 Mbps, however if I run that MP4 through the Samsung converter the resulting file shows it as being 440 Mbps, why is this anyone? Is it because you are going from H265 to H264 General Complete name : F:\RAW files should be on e drive\nx1hack\160mbit\SAM_0531.MP4 Format : MPEG-4 Format profile : Base Media / Version 2 Codec ID : mp42 File size : 2.25 GiB Duration : 2mn 0s Overall bit rate mode : Variable Overall bit rate : 160 Mbps Encoded date : UTC 2016-04-06 10:41:25 Tagged date : UTC 2016-04-06 10:41:25 Video ID : 2 Format : HEVC Format/Info : High Efficiency Video Coding Format profile : [email protected] Codec ID : hvc1 Codec ID/Info : High Efficiency Video Coding Duration : 2mn 0s Bit rate : 160 Mbps Width : 4 096 pixels Height : 2 160 pixels Display aspect ratio : 1.896 Frame rate mode : Constant Frame rate : 24.000 fps Color space : YUV Chroma subsampling : 4:2:0 Bit depth : 8 bits Bits/(Pixel*Frame) : 0.754 Stream size : 2.25 GiB (100%) Language : English Encoded date : UTC 2016-04-06 10:41:25 Tagged date : UTC 2016-04-06 10:41:25 Color primaries : BT.709 Transfer characteristics : BT.709 Matrix coefficients : BT.709 Color range : Full Audio ID : 1 Format : AAC Format/Info : Advanced Audio Codec Format profile : LC Codec ID : 40 Duration : 2mn 0s Source duration : 2mn 0s Bit rate mode : Variable Channel(s) : 2 channels Channel positions : Front: L R Sampling rate : 48.0 KHz Compression mode : Lossy Source stream size : 2.74 MiB (0%) Language : English Encoded date : UTC 2016-04-06 10:41:25 Tagged date : UTC 2016-04-06 10:41:25 mdhd_Duration : 120885 After Conversion General Complete name : F:\RAW files should be on e drive\nx1hack\160mbit\conv\SAM_0531_Pro_4096x2160.mp4 Format : MPEG-4 Format profile : Base Media Codec ID : isom File size : 6.19 GiB Duration : 2mn 0s Overall bit rate : 440 Mbps Writing application : Lavf56.9.100 Video ID : 1 Format : AVC Format/Info : Advanced Video Codec Format profile : [email protected] Format settings, CABAC : Yes Format settings, ReFrames : 4 frames Format settings, GOP : M=2, N=15 Codec ID : avc1 Codec ID/Info : Advanced Video Coding Duration : 2mn 0s Bit rate : 440 Mbps Width : 4 096 pixels Height : 2 160 pixels Display aspect ratio : 1.896 Frame rate mode : Constant Frame rate : 24.000 fps Color space : YUV Chroma subsampling : 4:2:0 Bit depth : 8 bits Scan type : Progressive Bits/(Pixel*Frame) : 2.074 Stream size : 6.19 GiB (100%) Writing library : x264 core 142 r2455 021c0dc Encoding settings : cabac=1 / ref=1 / deblock=1:0:0 / analyse=0x3:0x113 / me=hex / subme=2 / psy=1 / psy_rd=1.00:0.00 / mixed_ref=0 / me_range=16 / chroma_me=1 / trellis=0 / 8x8dct=1 / cqm=0 / deadzone=21,11 / fast_pskip=1 / chroma_qp_offset=0 / threads=6 / lookahead_threads=2 / sliced_threads=0 / nr=0 / decimate=1 / interlaced=0 / bluray_compat=0 / constrained_intra=0 / bframes=3 / b_pyramid=2 / b_adapt=1 / b_bias=0 / direct=1 / weightb=1 / open_gop=0 / weightp=1 / keyint=15 / keyint_min=1 / scenecut=40 / intra_refresh=0 / rc_lookahead=10 / rc=crf / mbtree=1 / crf=7.0 / qcomp=0.60 / qpmin=0 / qpmax=69 / qpstep=4 / ip_ratio=1.40 / aq=1:1.00 Language : English Audio ID : 2 Format : AAC Format/Info : Advanced Audio Codec Format profile : LC Codec ID : 40 Duration : 2mn 0s Bit rate mode : Constant Bit rate : 192 Kbps Channel(s) : 2 channels Channel positions : Front: L R Sampling rate : 48.0 KHz Compression mode : Lossy Stream size : 2.74 MiB (0%) Language : English
  9. Sorry, I mean the options in the nx1-pba.sh file 160Mbits/sec and 200Mbits/sec I am running with DIS off and a Manual Focus lens. I have been testing a bit more and noticed that if I run at 200Mbits/sec after a battery removal it will be pretty consistant, however if I have been using the camera for a while then it does crash out after about 6 secs. I have only recorded clips under 1 minute. I have reverted both cards back to 160Mbits/sec, I have just recorded a 25 minute PAL [email protected] with no issues.
  10. I have 2 SD cards that I have tested on, a Sandisk 280 MB/s and a Lexar 2000x 300 MB/s On the sandisk it is reliable setting the bitrate @ 160 MB/s, if you step up to 200 it will fail after about 10 seconds. On the Lexar it is reliable setting the bitrate @ 200 MB/s, if you step above this then it fails.
  11. There is now a workaround for NX500 users, by simulating going to preview and back it updates the menu. This can also be used on the NX1 which will allow for further instructions to be done after the menu refresh, like text on the screen. Here is the link to the details - http://www.dpreview.com/forums/post/57556055
  12. Tested this and it doesn't work, anything after the prefman save doesn't get executed. I think what happens is that the prefman save on the NX1 causes the camera to crash/reboot which causes an update of the menu system. This means that once you have done the prefman save then that is the end of the effected changes you can make. You could however set the on screen text and put a sleep in then do the changes ending in a prefman save. The only problem is the text will only stay on the screen until the reboot happens.
  13. I don't know if anything after the Prefman save would work as it does a reboot but I will try later today. Yes you should be able to put it into video standby, one of the St commands works, I can't remember off the top of my head, will look it up.
  14. Ok, someone asked if you could change between NTSC and PAL and also change vid mode and shutter speed. They requested an option to switch between NTSC/[email protected]/1/50 shutter and PAL/[email protected]/1/250 shutter speed with DIS disabled. So for NTSC/[email protected]/1/50 shutter enter the following into a corresponding key .sh file: ------------------------------------------------------------------------------------------------ prefman set 0 0x00000260 l 1 prefman set 0 0x00000330 l 1 prefman set 0 0x00000310 l 91 prefman save ----------------------------------------------------------------------------------------------- and for PAL/[email protected]/1/250 shutter speed with DIS disabled enter the following into a corresponding .sh file ------------------------------------------------------------------------------------------------ prefman set 0 0x00000260 l 0 prefman set 0 0x000006a4 l 0 prefman set 0 0x00000330 l 4 prefman set 0 0x00000310 l 128 prefman save ------------------------------------------------------------------------------------------------ 0x00000260 is APPPREF_VIDEO_OUT and sets the TV Output, 0 is PAL and 1 is NTSC 0x00000330 is APPPREF_MOV_SIZE and sets the Movie Size dependent on the TV output, so in PAL mode 1 is [email protected] and in NTSC mode 4 is [email protected] 0x000006a4 is APPPREF_MOV_DIS and sest DIS on or off, 0 is off and 1 is on 0x00000310 is APPPREF_SHUTTER_SPEED_INDEX and sets the shutter speed 91 is 1/50th and 128 is 1/250th I have tested this on the NX1 and it works ok. This doesn't currently work on the NX500, it looks like one of the options is missing on the NX500 when it does a prefman save and as such it does not refresh the menu's
  15. If you set an invalid option it does not change and stays its current value. Some settings can be set this way whilst not in the menu, like e-shutter on non nx lenses
×
×
  • Create New...